Sunday, October 18, 2009

Organ and...: John Gillock - Kathleen Bride: Organ and Harp


    Artist: John Gillock - Kathleen Bride
    Album: Organ and Harp
    Released: 1997
    Label: BMG/Editions Jade
    Catalog N°: MA 96 12 826
    Genre: Classical
    File Format: eac_flac_cue_log covers 254MB




    On this CD:


    01. Marcel Grandjany: Aria in Classic Style for Harp & Organ, Op 19 05:07
    02. Antonio Soler: Andantino (Adapted from Concerto III for Two Organs) 04:11
    03. J S Bach: Fugue in E-flat, BWV 552 for Organ 07:17
    04. Marcel Grandjany: Rhapsodie for Harp, Op 10 08:16
    05. Louie L. White: Aria (Suite for Harp and Organ) 07:50
    06. Louie L. White: Fugue (Suite for Harp and Organ) 03:30
    07. Antonio Soler: Minuet (adapted from Concerto VI for Two Organs) 05:04
    08. J S Bach: Adagio (adapted from Concerto for Two Keyboards in C Minor, BWV 1060) 05:41
    09. Charles Tournemire: Improvisation on the Te Deum for Organ / G F Handel: Concerto in B-flat for Harp, Op 4, No. 6 06:38
    10. G.F. Handel - Concerto four Harp Op. 4, No. 6: Andante allegro 04:56
    11. G.F. Handel - Concerto four Harp Op. 4, No. 6: Larghetto 04:23
    12. G.F. Handel - Concerto four Harp Op. 4, No. 6: Allegro Moderato 03:01



    pw: arfa


    Exact Audio Copy V0.99 prebeta 4 from 23. January 2008

    EAC extraction logfile from 15. September 2009, 5:39

    Serge Koussevitzky & Boston SO / Maestro Risoluto CD9 - R. Strauss, Sibelius

    Used drive : _NEC DVD_RW ND-3520A Adapter: 1 ID: 1

    Read mode : Secure
    Utilize accurate stream : Yes
    Defeat audio cache : Yes
    Make use of C2 pointers : No

    Read offset correction : 48
    Overread into Lead-In and Lead-Out : No
    Fill up missing offset samples with silence : Yes
    Delete leading and trailing silent blocks : No
    Null samples used in CRC calculations : Yes
    Used interface : Installed external ASPI interface

    Used output format : Internal WAV Routines
    Sample format : 44.100 Hz; 16 Bit; Stereo


    TOC of the extracted CD

    Track | Start | Length | Start sector | End sector
    ---------------------------------------------------------
    1 | 0:00.00 | 2:30.21 | 0 | 11270
    2 | 2:30.21 | 3:21.00 | 11271 | 26345
    3 | 5:51.21 | 1:26.05 | 26346 | 32800
    4 | 7:17.26 | 1:44.66 | 32801 | 40666
    5 | 9:02.17 | 2:10.31 | 40667 | 50447
    6 | 11:12.48 | 4:37.15 | 50448 | 71237
    7 | 15:49.63 | 5:19.39 | 71238 | 95201
    8 | 21:09.27 | 6:45.43 | 95202 | 125619
    9 | 27:54.70 | 3:48.22 | 125620 | 142741
    10 | 31:43.17 | 21:08.55 | 142742 | 237896
    11 | 52:51.72 | 17:10.42 | 237897 | 315188


    Range status and errors

    Selected range

    Filename E:\Maestro Risoluto\Serge Koussevitzky & Boston SO - Maestro Risoluto CD9 - R. Strauss, Sibelius.wav

    Peak level 96.7 %
    Range quality 100.0 %
    Test CRC 4144C671
    Copy CRC 4144C671
    Copy OK

    No errors occurred


    AccurateRip summary

    Track 1 not present in database
    Track 2 not present in database
    Track 3 not present in database
    Track 4 not present in database
    Track 5 not present in database
    Track 6 not present in database
    Track 7 not present in database
    Track 8 not present in database
    Track 9 not present in database
    Track 10 not present in database
    Track 11 not present in database

    None of the tracks are present in the AccurateRip database

    End of status report


    Exact Audio Copy V0.99 prebeta 4 from 23. January 2008

    EAC extraction logfile from 15. September 2009, 6:03

    Serge Koussevitzky & Boston SO / Maestro Risoluto CD10 - Harris, Hanson, Copland

    Used drive : HL-DT-STDVDRAM GE20NU10 Adapter: 4 ID: 0

    Read mode : Secure
    Utilize accurate stream : Yes
    Defeat audio cache : Yes
    Make use of C2 pointers : No

    Read offset correction : 667
    Overread into Lead-In and Lead-Out : No
    Fill up missing offset samples with silence : Yes
    Delete leading and trailing silent blocks : No
    Null samples used in CRC calculations : Yes
    Used interface : Installed external ASPI interface

    Used output format : Internal WAV Routines
    Sample format : 44.100 Hz; 16 Bit; Stereo


    TOC of the extracted CD

    Track | Start | Length | Start sector | End sector
    ---------------------------------------------------------
    1 | 0:00.00 | 16:44.30 | 0 | 75329
    2 | 16:44.30 | 10:02.45 | 75330 | 120524
    3 | 26:47.00 | 8:17.40 | 120525 | 157839
    4 | 35:04.40 | 6:01.70 | 157840 | 184984
    5 | 41:06.35 | 10:43.12 | 184985 | 233221
    6 | 51:49.47 | 3:19.32 | 233222 | 248178
    7 | 55:09.04 | 2:43.00 | 248179 | 260403
    8 | 57:52.04 | 3:54.69 | 260404 | 278022
    9 | 61:46.73 | 3:18.16 | 278023 | 292888
    10 | 65:05.14 | 3:39.01 | 292889 | 309314
    11 | 68:44.15 | 3:06.22 | 309315 | 323286
    12 | 71:50.37 | 4:42.10 | 323287 | 344446


    Range status and errors

    Selected range

    Filename E:\Maestro Risoluto\Serge Koussevitzky & Boston SO - Maestro Risoluto CD10 - Harris, Hanson, Copland.wav

    Peak level 100.0 %
    Range quality 100.0 %
    Test CRC 6D900725
    Copy CRC 6D900725
    Copy OK

    No errors occurred


    AccurateRip summary

    Track 1 not present in database
    Track 2 not present in database
    Track 3 not present in database
    Track 4 not present in database
    Track 5 not present in database
    Track 6 not present in database
    Track 7 not present in database
    Track 8 not present in database
    Track 9 not present in database
    Track 10 not present in database
    Track 11 not present in database
    Track 12 not present in database

    None of the tracks are present in the AccurateRip database

    End of status report
    Source URL: http://moremusicisthekey.blogspot.com/2009/10/organ-and-john-gillock-kathleen-bride.html
    Visit moremusicisthekey for Daily Updated Hairstyles Collection

Blog Archive